#TITLE:CRAZY GONNA CRAZY;
#SUBTITLE:;
#ARTIST:T.R.F;
#TITLETRANSLIT:;
#SUBTITLETRANSLIT:;
#ARTISTTRANSLIT:;
#CREDIT:;
#BANNER:CRAZY GONNA CRAZY_logo.jpg;
#BACKGROUND:CRAZY GONNA CRAZY_bg.jpg;
#LYRICSPATH:;
#CDTITLE:Lan.png;
#MUSIC:CRAZY GONNA CRAZY.mp3;
#OFFSET:-0.020;
#SAMPLESTART:100.000;
#SAMPLELENGTH:12.000;
#SELECTABLE:YES;
#BPMS:0.000=132.020;
#STOPS:;
#BGCHANGES:;
// cache tags:
#FIRSTBEAT:23.000;
#LASTBEAT:292.000;
#SONGFILENAME:Songs/lan sky/CRAZY GONNA CRAZY/CRAZY GONNA CRAZY.sm;
#HASMUSIC:1;
#HASBANNER:1;
#MUSICLENGTH:136.350;
// end cache tags

//---------------dance-single - sky----------------
#NOTES:
     dance-single:
     sky:
     Hard:
     8:
     0.746,0.883,0.946,0.132,0.301,565.000,129.000,18.000,0.000,1.000:

0000
0000
0000
0000
,
0000
0000
0000
0000
,
0000
0000
0000
0000
,
0000
0000
0000
0000
,
0000
0000
0000
0000
,
0000
0000
0000
1000
,
1000
0000
0011
0000
0100
1000
0010
0000
0001
0000
0100
0010
0001
0000
1010
0000
,
0001
0100
1000
0000
0110
0000
1000
0001
0000
0000
1010
0000
0001
0000
0100
0000
,
0001
1000
0001
1000
0000
0010
0100
0100
,
0010
0100
0000
0010
1000
0000
0100
0000
1001
0010
0000
0100
1001
0000
0100
0000
,
0001
0000
1000
0000
0010
0001
0000
0000
0110
0000
0000
0001
1000
0000
0110
0000
,
1000
0010
0000
0000
0101
0000
0000
1000
0010
0000
0100
0000
0011
0000
0000
0000
,
1100
0010
1001
0000
0010
0100
1001
0000
,
1001
0010
0000
0010
0001
0000
0100
0000
1010
0001
0000
0001
1100
0000
0010
0000
,
1001
0000
0010
0000
0100
1000
0000
0000
0110
0000
0000
0010
1001
0000
0110
0000
,
1001
0100
0000
0000
1010
0000
0000
0001
0100
0000
0001
0000
1010
0000
0001
0000
,
1100
0010
1001
0010
0101
1000
0011
1000
,
0100
1000
0000
1000
0001
0000
1010
0000
0101
0000
0101
0000
1010
0000
1010
0000
,
1000
0100
0010
0100
1000
0001
0010
0100
1000
0100
0010
0001
1000
0100
0010
0001
,
0100
0010
0001
0010
0100
0010
0001
0010
0100
1000
0001
0010
0100
1000
0001
0100
,
0010
1000
0100
0001
0010
0100
1000
0100
0010
0001
0100
1000
0010
0100
1000
0010
,
0001
1000
0010
0100
0001
1000
0100
0010
0001
0100
1010
0000
0001
0010
0100
0010
,
1000
0001
0000
0000
0101
0000
0000
0001
0010
0000
0001
0000
0100
0001
0000
0000
,
1010
0000
0000
0100
0001
0000
0100
0000
0010
1000
0000
0000
0101
0000
0000
1000
,
0010
0000
0001
0000
0100
0001
0000
0000
1010
0000
0000
0001
0100
0000
0010
0000
,
1100
0000
0010
0000
0101
0010
1000
0000
0100
0000
0010
0000
0001
0000
0100
0100
,
1000
0100
1010
0100
0001
0010
0101
0010
,
1000
0100
1010
0001
1000
0010
0101
0010
,
1001
0010
0101
0010
1000
0100
1010
0100
,
1001
0010
0101
1000
1000
0010
0101
1000
,
0010
0100
1010
0001
0100
0010
0101
1000
,
0010
1000
0011
1000
0010
0100
1001
0010
,
0100
0010
0101
1000
0010
0100
1010
0001
,
0100
0000
0011
0000
1100
0010
0001
0000
0010
1000
0000
0000
1100
0000
0000
0000
,
2010
0000
0100
0000
0001
0000
0010
0000
0100
0000
0010
0000
0001
0000
0010
3000
,
0012
0000
1000
0000
0100
0000
0010
0000
1000
0000
0010
0000
0100
0000
1000
0003
,
1200
0000
0001
0000
0010
0000
1000
0300
0021
0000
1000
0000
0100
0000
0001
0030
,
0200
0000
0010
0000
0001
0000
1000
0000
0010
0000
1000
0000
0001
0000
1000
0300
,
0012
0000
0100
0000
1000
0000
0100
0000
0010
0000
0100
0000
1000
0000
0010
0003
,
2100
0000
0001
0000
0010
0000
0001
0000
0100
0000
0001
0000
0010
0000
0100
3000
,
0021
0000
0100
0000
1000
0000
0100
0000
0001
0000
1000
0000
0100
0000
0001
0030
,
1200
0000
0010
0000
0001
0000
0010
0000
1000
0010
0000
0000
0011
0000
1000
0300
,
1020
0000
0000
1000
0000
0000
1000
0000
1000
0000
0000
0000
0000
0000
0000
0030
,
2100
0000
0000
0100
0000
0000
0100
0000
0100
0000
0000
0000
0010
0000
0001
3000
,
0210
0000
0000
0001
0000
0000
1000
0300
0021
0000
0000
0100
0000
0000
1000
0030
,
0102
0000
0000
0000
1000
0000
0000
0000
0100
0000
0000
0000
1000
0000
1000
0003
,
0210
0000
0000
0010
0000
0000
0010
0000
0010
0000
0000
0000
0000
0000
0000
0300
,
1020
0000
0000
1000
0000
0000
1000
0000
1000
0000
0000
0000
0100
0000
0001
0030
,
2100
0000
0010
0000
0001
0000
0010
0000
0001
0000
0100
0000
0010
0000
0100
3000
,
0012
0000
0100
0000
1000
0000
0100
0000
0010
0000
0100
0000
1000
0000
0100
0003
,
1100
0000
0010
0000
0010
0000
0100
1000
0010
0100
0001
0000
1000
0000
0100
0010
,
0001
0100
1010
0001
0100
0010
1001
0100
,
1000
0010
0101
1000
0010
0100
1001
1010
,
0100
0001
1010
0100
0001
0100
1010
0001
,
0100
0000
0001
0000
1010
0000
0100
0000
0001
0010
1000
0000
1100
0000
1100
0000
,
0011
1000
0100
0010
0001
0100
1010
0100
,
0001
0010
1100
0001
0010
0001
1100
1001
,
1000
0010
0101
1000
0010
0001
1100
0010
,
0100
0000
1001
0000
0010
0100
1000
0000
0001
0000
0110
0000
1000
0000
1010
0100
,
1001
0000
0110
0001
0100
0010
1001
0100
,
0010
0100
1001
0010
0100
0001
1010
0100
,
0010
0001
1100
0001
0010
1000
0101
0010
,
1000
0100
0000
0000
0011
0000
0000
0000
1000
0000
0100
0000
0101
0000
0100
0000
,
1000
0100
0011
1000
0100
1000
0011
0100
,
1000
0010
0101
1000
0010
0001
1100
0001
,
0010
1000
0101
1000
0010
1000
0110
0001
,
1000
0000
0110
0000
0001
0000
0010
0000
0100
0000
1100
0000
0001
0000
0101
0001
,
0010
1000
0101
0010
1000
0001
0110
1000
,
0001
0010
1100
0001
0010
1000
0101
0010
,
0001
0100
1010
0001
0100
0010
1001
0010
,
0100
0010
1000
0000
0011
0000
1000
0000
0100
0000
0011
0000
1010
0000
0100
0100
,
1001
0100
0011
1000
0100
1000
0011
0100
,
1000
0010
0101
1000
0001
1000
0100
0010
,
1001
0000
0000
0000
;
